<?xml version="1.0" standalone="no"?>
<!DOCTYPE svg PUBLIC "-//W3C//DTD SVG 1.1//EN" "http://www.w3.org/Graphics/SVG/1.1/DTD/svg11.dtd" >
<svg xmlns="http://www.w3.org/2000/svg">
<metadata>Generated by IcoMoon</metadata>
<defs>
<font id="artcurial-icons" horiz-adv-x="1024">
<font-face units-per-em="1024" ascent="960" descent="-64" />
<missing-glyph horiz-adv-x="1024" />
<glyph unicode="&#x20;" horiz-adv-x="512" d="" />
<glyph unicode="&#xe900;" glyph-name="clock" d="M512 106.667c188.513 0 341.333 152.82 341.333 341.333v0c0 188.513-152.82 341.333-341.333 341.333v0c-188.513 0-341.333-152.82-341.333-341.333v0c0-188.513 152.82-341.333 341.333-341.333v0zM512 874.667c235.641 0 426.667-191.025 426.667-426.667v0c0-235.641-191.025-426.667-426.667-426.667v0c-235.947 0-426.667 192-426.667 426.667 0 235.641 191.025 426.667 426.667 426.667v0zM533.333 661.333v-224l192-113.92-32-52.48-224 134.4v256z" />
<glyph unicode="&#xe901;" glyph-name="facebook" d="M477.857 958.917c-150.323-11.205-284.35-83.88-374.93-203.279-51.785-68.257-84.027-146.198-98.275-237.656-5.208-33.441-5.208-106.525 0-139.966 21.884-140.464 89.79-255.707 199.856-339.207 67.964-51.551 146.315-83.939 237.509-98.158 33.441-5.208 106.525-5.208 139.966 0 124.431 19.397 230.195 75.483 309.57 164.191 70.363 78.614 111.002 165.537 127.795 273.174 5.208 33.441 5.208 106.525 0 139.966-14.219 91.195-46.607 169.545-98.158 237.509-84.67 111.587-205.678 181.804-345.176 200.265-19.983 2.662-79.375 4.564-98.158 3.16zM629.731 721.847c10.825-1.346 20.246-2.458 20.948-2.487 0.702 0 1.258-19.515 1.258-43.359v-43.359l-31.978-0.644c-29.052-0.585-32.827-0.995-40.931-4.623-10.942-4.886-21.065-15.536-25.366-26.741-2.867-7.431-3.248-13.166-3.248-48.538v-40.112l48.187-0.439c26.536-0.263 48.216-0.848 48.216-1.346 0-1.638-13.663-90.288-14.658-95.056l-0.965-4.681h-81.657v-245.76h-109.217v245.76h-88.737v100.674h88.386l0.819 54.184c0.936 61.469 2.107 68.93 15.184 95.993 5.617 11.615 9.772 17.262 20.86 28.262 19.983 19.836 43.915 31.13 73.874 34.933 14.629 1.843 53.307 0.527 79.024-2.662z" />
<glyph unicode="&#xe902;" glyph-name="location" horiz-adv-x="983" d="M453.837 855.716c-20.234-2.458-48.701-8.11-64.553-12.78-146.964-43.254-250.798-169.247-264.765-321.208-8.52-93.020 19.62-187.269 78.193-261.98 4.997-6.39 72.049-74.67 148.972-151.716l139.837-140.083 140.657 140.902c85.934 86.098 144.507 146.022 150.569 154.092 46.121 61.481 70.615 125.87 76.063 200.049 13.844 187.924-117.432 355.82-304.21 389.079-15.565 2.744-27.566 3.604-57.344 3.932-5.009 0.122-10.909 0.191-16.826 0.191-9.351 0-18.662-0.174-27.929-0.517l1.337 0.039zM513.556 815.78c117.432-8.479 221.512-78.316 272.179-182.764 55.46-114.196 40.796-248.095-38.216-348.733-4.997-6.39-64.635-67.256-132.547-135.291l-123.453-123.699-123.453 123.699c-67.912 68.035-127.468 128.86-132.424 135.168-35.43 45.343-56.607 92.488-67.256 149.914-5.12 27.607-5.161 82.862-0.041 109.773 20.603 108.626 85.156 194.109 181.248 240.067 44.155 21.135 77.947 29.286 137.83 33.3 1.802 0.123 13.558-0.532 26.132-1.434zM462.561 608.481c-34.816-7.66-66.437-33.874-82.371-68.362-8.684-18.76-10.691-28.385-10.691-51.159s2.007-32.399 10.691-51.159c12.78-27.648 33.997-48.783 61.481-61.235 28.877-13.107 70.779-13.025 100.106 0.205 34.121 16.325 59.502 46.277 69.342 82.617l0.208 0.9c2.908 11.715 2.908 45.629 0 57.344-11.059 44.483-48.947 81.879-92.078 90.972-14.131 2.949-42.885 2.908-56.689-0.123zM516.096 566.743c26.542-7.7 47.636-30.065 54.845-58.040 1.539-5.917 2.422-12.71 2.422-19.709 0-21.588-8.405-41.213-22.122-55.781l0.039 0.041c-16.916-17.572-35.758-25.682-59.761-25.682-78.766 0-111.78 99.574-48.742 146.964 21.094 15.892 46.244 20.070 73.318 12.206z" />
<glyph unicode="&#xe903;" glyph-name="twitter" d="M477.857 958.917c-150.323-11.205-284.35-83.88-374.93-203.279-51.785-68.257-84.027-146.198-98.275-237.656-5.208-33.441-5.208-106.525 0-139.966 21.884-140.464 89.79-255.707 199.856-339.207 67.964-51.551 146.315-83.939 237.509-98.158 33.441-5.208 106.525-5.208 139.966 0 124.431 19.397 230.195 75.483 309.57 164.191 70.363 78.614 111.002 165.537 127.795 273.174 5.208 33.441 5.208 106.525 0 139.966-14.219 91.195-46.607 169.545-98.158 237.509-84.67 111.587-205.678 181.804-345.176 200.265-19.983 2.662-79.375 4.564-98.158 3.16zM479.583 581.968c25.805-34.231 47.397-62.084 47.952-61.85 0.585 0.234 25.395 28.262 55.179 62.288l54.096 61.85h66.677l-8.543-9.801c-4.681-5.413-37.361-42.803-72.645-83.090-39.556-45.202-63.576-73.962-62.727-75.103 1.843-2.37 159.978-211.734 165.42-218.99l4.155-5.53-134.378 0.029-52.048 68.257c-28.643 37.508-52.429 68.169-52.897 68.111s-27.589-30.779-60.299-68.257l-59.421-68.14h-66.911l3.511 3.833c1.931 2.107 37.010 42.13 77.941 88.971l74.401 85.109-10.767 13.868c-5.91 7.636-42.13 54.945-80.457 105.179l-71.329 93.418c-1.317 1.697 12.376 2.136 67.233 2.136h68.901l46.958-62.288zM373.76 605.872c0-0.673 235.52-309.628 239.762-314.514 0.234-0.263 8.631-0.263 18.637 0l18.198 0.468-237.568 314.046-19.515 0.468c-10.737 0.263-19.515 0.059-19.515-0.468z" />
<glyph unicode="&#xe904;" glyph-name="eye" horiz-adv-x="983" d="M457.114 788.623l-21.299-2.335c-74.506-8.069-159.007-40.796-227.574-88.146-84.746-58.491-156.836-142.623-199.148-232.243l-9.339-19.825 11.346-22.856c6.226-12.575 14.909-29.082 19.251-36.7 32.686-57.139 82.534-115.671 136.11-159.826 82.412-67.953 173.67-108.298 272.63-120.586 22.159-2.744 82.698-2.744 104.858 0 140.984 17.49 269.844 93.962 366.1 217.334 23.921 30.597 42.107 59.884 61.604 99.205l11.633 23.429-9.339 19.825c-57.057 120.832-163.021 225.362-284.385 280.412-40.541 18.245-87.627 32.228-136.865 39.645l-3.014 0.373c-13.394 1.802-82.248 3.523-92.57 2.294zM539.238 746.23c39.854-4.669 76.186-14.131 117.432-30.556 105.841-42.189 205.701-131.482 264.52-236.544 13.722-24.494 16.548-31.007 15.442-35.43-1.434-5.612-21.012-40.468-33.464-59.515-77.496-118.948-201.728-206.684-328.090-231.711-31.662-6.226-46.121-7.537-83.558-7.537s-51.896 1.311-83.558 7.537c-126.403 25.027-250.593 112.722-328.090 231.711-12.452 19.046-32.031 53.903-33.464 59.515-1.106 4.424 1.72 10.936 15.442 35.43 49.070 87.654 126.075 163.881 215.818 213.688 47.636 26.378 110.592 46.858 164.291 53.33 24.412 2.949 72.335 2.99 97.28 0.082zM462.029 598.733c-60.948-12.206-109.609-60.047-122.143-120.013-3.482-16.712-3.441-46.531 0.082-63.488 12.806-59.763 58.649-106.167 117.084-119.606l1.045-0.202c17.613-4.055 49.234-4.055 66.847 0 59.515 13.763 106.004 60.867 118.047 119.644 3.441 16.712 3.441 45.875 0.041 62.423-12.978 61.763-61.321 109.418-122.438 121.208l-0.975 0.157c-14.664 2.826-43.172 2.785-57.59-0.123zM517.448 557.732c33.915-7.987 65.495-34.202 78.93-65.454 9.83-22.938 11.919-53.985 5.079-76.227-11.223-36.7-39.731-66.642-74.342-78.070-11.756-3.891-16.179-4.465-34.775-4.547-17.9-0.123-23.265 0.492-33.587 3.686-38.502 12.001-67.625 42.926-78.889 83.845-3.441 12.575-2.621 41.411 1.638 56.525 11.578 38.829 41.922 68.645 80.245 79.27l0.815 0.193c14.582 3.85 40.428 4.178 54.886 0.778z" />
<glyph unicode="&#xe905;" glyph-name="hammer-down" d="M160.427 610.987c0-74.624-0.597-135.68-1.323-135.68-0.683 0-12.8 11.52-26.837 25.6-26.88 26.923-30.037 28.843-36.693 22.187-6.912-6.912-5.205-9.344 33.707-48.213 28.587-28.544 38.144-37.12 41.429-37.12s12.8 8.576 41.344 37.12c38.869 38.912 40.576 41.344 33.707 48.213-6.656 6.656-9.813 4.736-36.693-22.187-14.037-14.080-26.155-25.6-26.837-25.6-0.725 0-1.323 61.056-1.323 135.68v135.68h-20.48v-135.68zM442.411 659.115c-2.005-2.56-14.037-23.339-14.037-24.192 0-0.384 5.76-3.968 12.843-7.979 7.851-4.48 12.501-8.149 12.032-9.472-0.768-1.963-167.765-291.712-189.867-329.387l-9.216-15.701-8.448 4.992c-4.693 2.731-10.752 6.144-13.525 7.595l-4.992 2.56-7.125-12.928c-3.925-7.083-6.485-13.525-5.675-14.293s56.405-33.067 123.52-71.765l141.44-81.664 5.461 9.728c3.029 5.333 6.571 11.307 7.851 13.312 2.261 3.413 1.749 3.968-10.581 11.008-8.917 5.12-12.757 8.235-12.245 10.069 0.555 2.091 196.608 342.699 198.229 344.405 0.256 0.256 6.315-2.987 13.483-7.211l13.013-7.68 2.347 3.797c10.453 17.067 13.099 22.315 11.904 23.424-0.768 0.725-54.4 31.829-119.168 69.163-64.768 37.291-124.032 71.552-131.712 76.032-10.283 6.016-14.379 7.68-15.531 6.187zM562.005 557.099c56.619-32.597 77.995-45.739 77.525-47.616-0.555-2.091-196.693-342.784-198.229-344.363-0.512-0.512-156.288 89.344-158.208 91.264-0.768 0.768 40.491 73.941 91.691 162.645 110.976 192.299 106.411 184.491 107.861 183.723 0.683-0.299 36.395-20.864 79.36-45.653zM624.725 297.515c-5.717-9.856-6.656-12.629-4.864-14.251 1.237-1.109 55.125-32.512 119.808-69.803 88.875-51.243 117.931-67.2 119.040-65.536 6.699 10.24 13.483 24.149 12.288 25.216-2.816 2.475-236.245 136.619-237.739 136.619-0.811 0-4.651-5.504-8.533-12.245z" />
<glyph unicode="&#xe906;" glyph-name="user-check" d="M404.779 882.176c-71.253-11.947-116.779-64.512-126.72-146.261-3.2-26.368-1.323-65.963 4.309-90.795 6.912-30.336 16.768-58.496 29.909-85.333 27.349-55.979 60.416-91.349 98.176-105.173 14.677-5.376 45.056-5.376 59.733 0 17.579 6.443 33.28 16.981 49.493 33.365 34.901 35.2 64.171 93.781 78.592 157.141 8.491 37.461 7.723 86.571-1.92 123.52-13.525 51.797-47.829 91.136-93.013 106.624-27.093 9.259-67.584 12.117-98.56 6.912zM478.72 860.16c47.488-10.069 79.573-40.576 95.189-90.453 7.040-22.485 8.917-37.077 8.789-68.267-0.043-23.339-0.811-32.512-3.883-46.933-8.704-40.576-29.056-90.539-49.365-121.088-11.861-17.877-31.616-38.827-44.971-47.744-52.992-35.371-111.189-3.669-153.259 83.584-11.695 24.291-21.789 52.718-28.814 82.333l-0.583 2.915c-4.608 21.675-5.504 67.712-1.664 88.747 14.891 82.176 65.323 123.392 146.987 120.192 10.795-0.384 25.003-1.877 31.573-3.285zM407.424 389.803c-98.389-5.205-176.171-36.437-233.387-93.653-26.069-26.069-40.32-45.867-57.088-79.403-20.992-41.941-33.451-85.589-39.253-137.387-2.603-22.955-3.541-67.243-1.579-72.405 0.939-2.432 34.645-2.688 364.203-2.688s363.264 0.256 364.203 2.688c1.749 4.565 1.152 48-0.939 68.565l-1.963 19.371-9.557-1.152c-4.021-0.391-7.626-0.993-11.146-1.818l0.564 0.112c-0.512-0.341-0.341-5.035 0.384-10.453 0.768-5.461 1.92-20.437 2.56-33.365l1.152-23.467h-690.517l1.067 21.76c3.712 75.435 23.509 141.227 58.24 193.195 45.525 68.309 114.944 109.397 210.859 124.885 41.429 6.699 116.053 6.101 158.976-1.237l6.187-1.067 1.195 7.424c0.64 4.096 1.493 8.747 1.92 10.283 0.64 2.261-1.28 3.157-9.941 4.608-30.592 5.205-77.056 7.296-116.139 5.205zM836.352 268.672c-56.747-60.928-103.595-110.805-104.107-110.805s-30.080 30.379-65.707 67.499l-64.811 67.413-15.189-15.189 60.928-63.189c18.393-18.991 42.096-43.626 65.737-68.321l6.967-7.327 11.776-12.459 8.491 8.533c4.693 4.693 55.040 58.411 111.915 119.424l103.381 110.848-7.211 7.339c-2.365 2.703-5.012 5.066-7.922 7.075l-0.142 0.093c-0.512-0.085-47.36-50.005-104.107-110.933z" />
<glyph unicode="&#xe907;" glyph-name="user" d="M404.779 882.176c-71.253-11.947-116.779-64.512-126.72-146.261-3.2-26.368-1.323-65.963 4.309-90.795 6.912-30.336 16.768-58.496 29.909-85.333 27.349-55.979 60.416-91.349 98.176-105.173 14.677-5.376 45.056-5.376 59.733 0 17.579 6.443 33.28 16.981 49.493 33.365 34.901 35.2 64.171 93.781 78.592 157.141 8.491 37.461 7.723 86.571-1.92 123.52-13.525 51.797-47.829 91.136-93.013 106.624-27.093 9.259-67.584 12.117-98.56 6.912zM478.72 860.16c47.488-10.069 79.573-40.576 95.189-90.453 7.040-22.485 8.917-37.077 8.789-68.267-0.043-23.339-0.811-32.512-3.883-46.933-8.704-40.576-29.056-90.539-49.365-121.088-11.861-17.877-31.616-38.827-44.971-47.744-52.992-35.371-111.189-3.669-153.259 83.584-11.695 24.291-21.789 52.718-28.814 82.333l-0.583 2.915c-4.608 21.675-5.504 67.712-1.664 88.747 14.891 82.176 65.323 123.392 146.987 120.192 10.795-0.384 25.003-1.877 31.573-3.285zM413.227 393.216c-137.771-7.168-240.469-65.792-293.931-167.936-22.741-43.435-35.285-85.419-41.515-139.136-2.645-22.699-3.669-67.115-1.664-72.363 0.939-2.432 35.285-2.688 371.883-2.688s370.944 0.256 371.883 2.688c2.005 5.248 0.981 49.664-1.664 72.363-4.608 39.68-12.117 70.699-24.96 103.296-43.904 111.317-131.413 178.005-260.864 198.699-17.707 2.859-81.237 7.552-90.368 6.699-1.408-0.128-14.379-0.853-28.8-1.621zM525.099 368.043c66.56-10.325 120.192-32.299 163.115-66.859 66.859-53.845 106.453-141.696 111.659-247.851l1.067-21.76h-705.877l1.067 21.76c3.797 77.141 26.496 147.285 64.213 198.144 51.115 68.907 128.725 108.501 234.752 119.723 7.509 0.811 34.773 1.195 60.587 0.896 36.736-0.427 51.84-1.323 69.419-4.053z" />
<glyph unicode="&#xe908;" glyph-name="calendar" d="M269.653 785.067v-98.133h75.093v196.267h-75.093v-98.133zM653.653 785.067v-98.133h76.8v196.267h-76.8v-98.133zM327.68 784.213v-81.92h-40.96v163.84h40.96v-81.92zM712.96 784.64l-0.427-81.493h-40.96l-0.427 81.493-0.469 81.493h42.752l-0.469-81.493zM85.333 424.107v-360.107h827.733v720.213h-146.773v-17.067h133.12v-686.080h-798.72v686.080h133.12v17.067h-148.48v-360.107zM382.293 775.68v-8.533h235.52v17.067h-235.52v-8.533zM150.187 568.32v-62.293h105.813v124.587h-105.813v-62.293zM298.667 568.32v-62.293h105.813v124.587h-105.813v-62.293zM447.147 568.32v-62.293h105.813v124.587h-105.813v-62.293zM595.627 568.32v-62.293h104.107v124.587h-104.107v-62.293zM742.4 568.32v-62.293h105.813v124.587h-105.813v-62.293zM238.933 568.32v-45.227h-71.68v90.453h71.68v-45.227zM387.413 568.32v-45.227h-71.68v90.453h71.68v-45.227zM535.893 568.32v-45.227h-71.68v90.453h71.68v-45.227zM684.373 568.32v-45.227h-73.387v90.453h73.387v-45.227zM831.147 568.32v-45.227h-71.68v90.453h71.68v-45.227zM150.187 388.267v-63.147h105.813v126.293h-105.813v-63.147zM298.667 388.267v-63.147h105.813v126.293h-105.813v-63.147zM447.147 388.267v-63.147h105.813v126.293h-105.813v-63.147zM595.627 388.267v-63.147h104.107v126.293h-104.107v-63.147zM742.4 388.267v-63.147h105.813v126.293h-105.813v-63.147zM238.933 388.224v-46.123l-70.827 0.939-0.469 43.477c-0.256 23.936-0.085 44.459 0.384 45.653 0.64 1.664 9.173 2.176 35.883 2.176h35.029v-46.123zM387.413 388.267v-46.080h-71.68v92.16h71.68v-46.080zM535.040 388.267v-45.227l-70.827-0.939v92.331l70.827-0.939v-45.227zM683.52 388.267v-45.227h-71.68l-0.469 43.477c-0.256 23.936-0.085 44.501 0.384 45.696 0.683 1.707 8.619 2.091 36.309 1.749l35.456-0.469v-45.227zM831.147 388.224v-46.123l-70.827 0.939-0.469 43.477c-0.256 23.936-0.085 44.459 0.384 45.653 0.64 1.664 9.173 2.176 35.883 2.176h35.029v-46.123zM150.187 208.213v-62.293h105.813v124.587h-105.813v-62.293zM298.667 208.213v-62.293h105.813v124.587h-105.813v-62.293zM447.147 208.213v-62.293h105.813v124.587h-105.813v-62.293zM595.627 208.213v-62.293h104.107v124.587h-104.107v-62.293zM742.4 208.213v-62.293h105.813v124.587h-105.813v-62.293zM238.933 208.213v-45.227h-71.68v90.453h71.68v-45.227zM387.413 208.213v-45.227h-71.68v90.453h71.68v-45.227zM535.893 208.213v-45.227h-71.68v90.453h71.68v-45.227zM684.373 208.213v-45.227h-73.387v90.453h73.387v-45.227zM831.147 208.213v-45.227h-71.68v90.453h71.68v-45.227z" />
<glyph unicode="&#xe909;" glyph-name="box" d="M286.379 781.355l-205.995-105.173 2.517-4.864c2.517-4.821 2.475-4.864-2.645-4.864h-5.163l0.427-207.616 0.427-207.573 188.587-92.885c-237.323 104.902-169.733 71.109-102.060 37.457l308.14-138.662 17.493-8.32 2.347 4.48 2.347 4.437 2.133-4.139c1.195-2.261 2.347-4.352 2.517-4.565 0.213-0.256 93.611 45.227 207.573 101.077l207.189 101.504 0.853 414.805h-5.291c-4.395 0-5.12 0.512-4.096 2.987 0.629 1.498 1.134 3.248 1.432 5.068l0.019 0.138c0.171 1.365-82.304 44.203-206.165 107.093 744.169-347.014 676.467-312.048 608.733-277.133l-815.24 381.965-206.080-105.216zM548.821 834.347c30.592-15.616 54.955-28.971 54.187-29.696 56.725 25.622-4.464-7.496-65.821-40.34l-121.101-59.201-185.557-98.176-122.155 59.904 16.213 8.192c8.917 4.48 95.317 48.555 192 97.92 96.683 49.323 176 89.728 176.213 89.728 0.256 0.043 25.472-12.715 56.021-28.331zM673.963 770.773l43.349-21.931-10.923-6.059c-6.016-3.328-90.027-48.043-186.709-99.371l-175.787-93.312-90.283 45.013 11.008 5.803 185.941 98.688c96.213 51.072 176.085 92.885 177.493 92.971 1.408 0.043 22.059-9.771 45.909-21.803zM798.507 707.499c31.573-15.872 62.379-31.573 68.437-34.859l11.051-5.973-384.725-190.208-62.293 30.549c-34.304 16.853-62.336 30.976-62.336 31.488 0 0.981 368.555 197.461 370.987 197.76 0.811 0.085 27.307-12.843 58.88-28.757zM158.72 618.667l61.44-30.72v-163.84h65.237l33.707-32.427c18.56-17.835 34.219-32.427 34.816-32.427s1.067 36.48 1.067 81.067v81.109l127.147-64.043 0.427-190.72c0.256-107.349-0.213-190.72-1.024-190.72-0.853 0-87.808 42.496-193.323 94.421l-191.787 94.379-0.427 192.341c-0.256 105.771-0.043 192.299 0.427 192.299s28.501-13.824 62.293-30.72zM890.837 456.96v-192.427l-190.72-93.312c179.811 78.417 116.264 46.843 52.626 15.425l-246.29-109.931c-2.859-1.067-2.987 8.405-2.56 190.293l0.427 191.403 192.853 95.403c106.069 52.48 193.024 95.445 193.28 95.488s0.427-86.485 0.384-192.341zM332.715 470.485l0.085-62.037-40.107 37.803-52.053 0.043v131.243l92.032-45.056 0.043-61.995z" />
<glyph unicode="&#xe90a;" glyph-name="download" d="M496.64 530.389v-173.611l-38.912 38.784c-34.901 34.773-39.509 38.784-44.501 38.784-7.723 0-15.573-7.893-15.573-15.616 0-5.163 4.907-10.581 54.229-59.861 50.261-50.304 54.613-54.229 60.117-54.229s9.856 3.925 60.373 54.443l54.485 54.485-1.067 6.443c-1.323 8.149-5.589 12.459-13.739 13.781l-6.4 1.024-78.293-78.037v347.221h-30.72v-173.611zM256 207.36v-15.36h512v30.72h-512v-15.36z" />
<glyph unicode="&#xe90b;" glyph-name="laptop-full" horiz-adv-x="1109" d="M191.36 808.363c-39.296-7.893-75.008-43.648-82.219-82.261-1.493-7.893-1.92-77.227-1.536-242.176l0.555-231.125 4.139-10.837c2.261-5.973 6.613-14.933 9.685-19.883l5.547-9.045h-34.645c-19.072 0-37.845-0.896-41.728-1.963-9.003-2.517-21.205-13.483-25.515-22.997-2.859-6.229-3.371-12.416-3.413-39.339-0.043-27.819 0.427-32.853 3.456-38.869 4.736-9.216 12.501-16.811 21.461-20.907 7.125-3.285 26.325-3.413 507.52-3.413s500.395 0.128 507.52 3.413c9.429 4.309 17.152 12.075 21.504 21.461 4.992 10.88 4.992 66.731 0 77.653-4.309 9.515-16.512 20.48-25.515 22.997-3.883 1.067-22.656 1.963-41.685 1.963h-34.56l7.339 13.696c13.312 24.619 12.757 13.184 12.8 264.96 0 156.075-0.597 228.949-2.005 235.733-6.741 32.725-34.347 64-68.181 77.184l-12.075 4.693-360.533 0.299c-198.272 0.128-363.861-0.427-367.915-1.237zM874.539 490.368v-192.256h-639.744v384.555h639.744v-192.299z" />
<glyph unicode="&#xe90c;" glyph-name="zoom-in" d="M332.8 839.723c-53.461-7.979-98.987-31.275-138.24-70.741-26.731-26.284-47.627-58.413-60.627-94.324l-0.557-1.762c-34.475-97.749-10.453-206.677 61.184-277.675 19.755-19.541 38.059-32.981 61.781-45.312 18.645-9.728 46.72-19.84 63.659-22.955 40.235-7.424 86.016-4.864 122.24 6.869 21.458 7.974 39.669 16.678 56.964 26.779l-1.711-0.923c58.453 36.651 99.755 96.384 115.328 166.827 5.035 22.741 6.4 70.784 2.688 95.573-12.459 83.456-63.36 155.563-135.893 192.555-28.885 14.763-47.744 20.864-77.227 25.045-10.5 1.429-22.635 2.246-34.961 2.246-12.208 0-24.229-0.801-36.014-2.352l1.385 0.149zM389.973 820.053c76.117-8.363 141.739-53.077 178.176-121.429 37.717-70.741 39.040-152.021 3.712-225.536-21.163-44.032-60.885-84.309-105.173-106.624-15.275-7.68-44.203-16.939-63.189-20.181-34.133-5.803-81.152-1.109-113.365 11.349-110.848 42.88-172.971 164.651-144.213 282.752 27.904 114.603 132.821 191.872 244.053 179.669zM358.4 665.6v-72.533h-139.947v-20.437l139.093-0.896 0.427-72.96 0.469-72.96h20.437v146.773h138.24v20.48h-138.24v145.067h-20.48v-72.533zM604.16 348.16l-7.595-7.765 269.525-269.568 15.36 15.36-269.696 269.739-7.595-7.765z" />
<glyph unicode="&#xe90d;" glyph-name="zoom-out" d="M332.8 839.723c-53.461-7.979-98.987-31.275-138.24-70.741-26.731-26.284-47.627-58.413-60.627-94.324l-0.557-1.762c-34.475-97.749-10.453-206.677 61.184-277.675 19.755-19.541 38.059-32.981 61.781-45.312 18.645-9.728 46.72-19.84 63.659-22.955 40.235-7.424 86.016-4.864 122.24 6.869 21.458 7.974 39.669 16.678 56.964 26.779l-1.711-0.923c58.453 36.651 99.755 96.384 115.328 166.827 5.035 22.741 6.4 70.784 2.688 95.573-12.459 83.456-63.36 155.563-135.893 192.555-28.885 14.763-47.744 20.864-77.227 25.045-10.5 1.429-22.635 2.246-34.961 2.246-12.208 0-24.229-0.801-36.014-2.352l1.385 0.149zM389.973 820.053c76.117-8.363 141.739-53.077 178.176-121.429 37.717-70.741 39.040-152.021 3.712-225.536-21.163-44.032-60.885-84.309-105.173-106.624-15.275-7.68-44.203-16.939-63.189-20.181-34.133-5.803-81.152-1.109-113.365 11.349-110.848 42.88-172.971 164.651-144.213 282.752 27.904 114.603 132.821 191.872 244.053 179.669zM218.453 582.827v-10.24h298.667v20.48h-298.667v-10.24zM604.16 348.16l-7.595-7.765 269.525-269.568 15.36 15.36-269.696 269.739-7.595-7.765z" />
<glyph unicode="&#xe90e;" glyph-name="search" d="M332.8 839.723c-53.461-7.979-98.987-31.275-138.24-70.741-26.731-26.284-47.627-58.413-60.627-94.324l-0.557-1.762c-34.475-97.749-10.453-206.677 61.184-277.675 19.755-19.541 38.059-32.981 61.781-45.312 18.645-9.728 46.72-19.84 63.659-22.955 40.235-7.424 86.016-4.864 122.24 6.869 21.458 7.974 39.669 16.678 56.964 26.779l-1.711-0.923c58.453 36.651 99.755 96.384 115.328 166.827 5.035 22.741 6.4 70.784 2.688 95.573-12.459 83.456-63.36 155.563-135.893 192.555-28.885 14.763-47.744 20.864-77.227 25.045-10.5 1.429-22.635 2.246-34.961 2.246-12.208 0-24.229-0.801-36.014-2.352l1.385 0.149zM389.973 820.053c76.117-8.363 141.739-53.077 178.176-121.429 37.717-70.741 39.040-152.021 3.712-225.536-21.163-44.032-60.885-84.309-105.173-106.624-15.275-7.68-44.203-16.939-63.189-20.181-34.133-5.803-81.152-1.109-113.365 11.349-110.848 42.88-172.971 164.651-144.213 282.752 27.904 114.603 132.821 191.872 244.053 179.669zM604.16 348.16l-7.595-7.765 269.525-269.568 15.36 15.36-269.696 269.739-7.595-7.765z" />
<glyph unicode="&#xe90f;" glyph-name="right" d="M297.771 831.957l-6.699-6.869 377.088-377.088-376.405-376.405 7.339-7.168 7.339-7.211 390.741 390.784-195.413 195.413c-107.477 107.477-195.84 195.413-196.352 195.413s-3.925-3.072-7.637-6.869z" />
<glyph unicode="&#xe910;" glyph-name="left" d="M479.573 643.413l-195.413-195.413 390.741-390.784 7.339 7.211 7.339 7.168-376.405 376.405 377.088 377.088-6.699 6.869c-2.268 2.557-4.771 4.816-7.503 6.777l-0.135 0.092c-0.512 0-88.875-87.936-196.352-195.413z" />
<glyph unicode="&#xe911;" glyph-name="file" d="M247.467 426.667v-371.2h544.427v297.813c0 296.661 0 297.813-3.413 297.813-3.883 0-4.395 1.749-1.365 4.779 1.579 1.579 0.896 3.285-3.115 7.595-2.859 3.029-29.227 31.659-58.624 63.573-69.76 75.733-62.464 68.437-65.664 65.792-2.261-1.877-2.645-1.664-2.645 1.408v3.627h-409.6v-371.2zM648.533 712.533v-68.267h126.293v-571.733h-510.293v708.267h384v-68.267zM714.795 714.24c26.453-28.587 48.085-52.608 48.085-53.333s-22.059-1.109-49.067-0.896l-49.067 0.469-0.469 53.504c-0.213 29.397 0.213 53.205 0.981 52.907 0.811-0.341 23.083-24.021 49.536-52.651zM344.747 583.68v-7.68h341.333v15.36h-341.333v-7.68zM344.747 485.547v-8.533h341.333v17.067h-341.333v-8.533zM344.747 387.413v-7.68h341.333v15.36h-341.333v-7.68zM344.747 289.28v-8.533h341.333v17.067h-341.333v-8.533z" />
<glyph unicode="&#xe912;" glyph-name="share" d="M743.467 796.885c-29.739-7.211-59.563-36.096-67.755-65.579-1.542-7.154-2.655-15.6-3.098-24.223l-0.016-0.396-1.024-16.939-381.355-140.331-10.795 10.325c-6.205 5.826-13.108 11.045-20.531 15.484l-0.547 0.303c-26.709 14.251-63.147 14.251-90.069 0-13.397-7.083-32.725-26.411-39.808-39.808-6.739-13.12-10.688-28.627-10.688-45.056s3.95-31.936 10.952-45.623l-0.263 0.567c7.083-13.397 26.411-32.725 39.808-39.808 30.763-16.256 73.173-13.739 99.371 5.888 3.072 2.304 6.912 3.84 8.533 3.413 2.347-0.683 399.829-188.672 400.811-189.568 0.171-0.171-0.768-4.907-2.091-10.496-5.205-22.101-2.005-48.768 8.235-68.096 7.083-13.397 26.411-32.725 39.808-39.808 26.88-14.251 63.232-14.251 90.112 0 13.397 7.083 32.725 26.411 39.808 39.808 6.739 13.12 10.688 28.627 10.688 45.056s-3.95 31.936-10.952 45.623l0.263-0.567c-7.083 13.397-26.411 32.725-39.808 39.808-13.135 6.733-28.656 10.679-45.099 10.679-16.409 0-31.901-3.93-45.584-10.9l0.571 0.264c-8.986-5.456-16.745-11.682-23.605-18.783l-0.032-0.033-13.269-13.269-191.531 90.667c-105.387 49.92-194.389 92.16-197.845 93.909l-6.315 3.2 5.931 9.813c8.107 13.483 11.093 24.064 12.16 43.221 0.237 2.372 0.372 5.127 0.372 7.914 0 8.073-1.133 15.881-3.248 23.274l0.146-0.596c-1.225 4.052-2.327 9.026-3.083 14.113l-0.074 0.607c1.067 1.067 372.011 137.216 373.845 137.216 1.109 0 4.309-4.437 7.083-9.813 6.613-12.757 26.197-32.213 39.467-39.211 26.88-14.251 63.232-14.251 90.112 0 13.397 7.083 32.725 26.411 39.808 39.808 6.739 13.12 10.688 28.627 10.688 45.056s-3.95 31.936-10.952 45.623l0.263-0.567c-7.083 13.397-26.411 32.725-39.808 39.808-19.413 10.283-47.061 13.44-69.589 8.021zM783.616 776.619c15.701-3.328 24.363-8.192 36.864-20.693 17.579-17.579 25.003-40.021 20.992-63.445-2.944-17.109-8.704-28.16-21.248-40.704-17.877-17.835-40.192-25.301-63.744-21.248-16.205 2.3-30.292 10.007-40.663 21.204l-0.041 0.044c-11.241 10.412-18.948 24.499-21.206 40.341l-0.042 0.363c-4.011 23.424 3.413 45.867 20.992 63.445 12.245 12.288 21.205 17.408 36.096 20.608 13.568 2.987 18.347 2.987 32 0.085zM228.949 563.285c15.701-3.328 24.363-8.192 36.864-20.693 17.579-17.579 25.003-40.021 20.992-63.445-2.944-17.109-8.704-28.16-21.248-40.704-17.877-17.835-40.192-25.301-63.744-21.248-16.205 2.3-30.292 10.007-40.663 21.204l-0.041 0.044c-11.241 10.412-18.948 24.499-21.206 40.341l-0.042 0.363c-4.011 23.424 3.413 45.867 20.992 63.445 12.245 12.288 21.205 17.408 36.096 20.608 13.568 2.987 18.347 2.987 32 0.085zM783.616 264.619c15.701-3.328 24.363-8.192 36.864-20.693 17.579-17.579 25.003-40.021 20.992-63.445-2.944-17.109-8.704-28.16-21.248-40.704-10.412-11.241-24.499-18.948-40.341-21.206l-0.363-0.042c-23.552-4.053-45.867 3.413-63.744 21.248-11.241 10.412-18.948 24.499-21.206 40.341l-0.042 0.363c-4.011 23.424 3.413 45.867 20.992 63.445 12.245 12.288 21.205 17.408 36.096 20.608 13.568 2.987 18.347 2.987 32 0.085z" />
<glyph unicode="&#xe913;" glyph-name="settings" d="M489.813 883.712c-14.168-2.942-26.686-8.478-37.615-16.13l0.324 0.215c-23.467-16.512-40.448-43.52-43.947-70.101l-1.109-8.363h-364.8v-22.187h364.8l1.152-8.704c0.64-4.821 2.987-13.611 5.205-19.541 21.205-56.32 82.859-82.773 134.912-57.941 26.837 12.843 52.139 45.44 56.235 72.533 0.64 4.224 1.536 9.003 2.005 10.667 0.768 2.816 10.24 2.987 167.979 2.987h167.125v22.187h-334.421l-0.811 3.84c0.070-1.239-0.864 3.229-1.764 7.71l-0.924 5.517c-3.285 16.768-12.971 33.536-28.117 48.725-15.275 15.317-28.331 23.125-45.44 27.136-7.575 1.491-16.284 2.344-25.193 2.344-5.496 0-10.916-0.325-16.241-0.956l0.645 0.062zM524.757 861.824c14.464-3.797 25.899-10.496 37.035-21.803 22.741-22.955 30.421-57.387 20.224-90.155-6.101-19.541-23.552-40.277-41.344-49.195-52.565-26.283-112.299 15.019-112.299 77.611 0 24.149 7.040 42.752 22.613 59.861 10.709 11.691 23.296 19.584 37.035 23.168 14.080 3.669 23.979 3.797 36.736 0.512zM250.88 562.859c-39.552-6.613-74.709-42.88-81.963-84.608l-2.005-11.477h-124.245v-20.48h124.416l1.067-6.4c4.053-24.021 12.501-40.875 29.44-58.709 19.712-20.651 41.856-30.464 68.907-30.464 16.811 0 28.544 2.475 42.027 8.832 27.435 12.928 49.792 41.472 56.789 72.533 2.773 12.331 2.261 41.131-0.981 53.547-9.771 37.717-40.448 68.48-75.691 75.947-6.945 1.359-14.93 2.137-23.097 2.137-5.167 0-10.261-0.311-15.265-0.916l0.602 0.059zM278.827 541.909c30.805-5.035 56.661-29.824 65.024-62.251 5.461-21.376 2.005-48.896-8.491-66.859-26.837-45.867-84.011-55.083-120.405-19.413-16.545 16.037-26.814 38.466-26.814 63.293 0 6.584 0.722 12.998 2.091 19.17l-0.109-0.586c3.755 17.621 9.856 29.227 22.485 42.581 12.416 13.184 23.595 19.84 38.699 23.125 13.312 2.901 15.147 2.987 27.52 0.939zM372.053 456.533v-10.24h570.027v20.48h-570.027v-10.24zM669.013 241.28c-13.013-2.048-35.499-13.525-46.805-23.851-16.886-15.568-28.836-36.259-33.381-59.596l-0.112-0.692-1.963-11.221h-544.085v-20.48h543.829l2.859-13.227c7.637-35.371 33.365-66.005 65.152-77.525 12.544-4.523 40.064-6.144 54.357-3.157 37.376 7.765 71.765 45.952 77.227 85.803l1.109 8.107h154.88v20.437l-154.197 0.896-3.029 14.080c-4.437 20.608-13.141 36.096-29.568 52.651-24.32 24.448-51.84 33.323-86.272 27.776zM719.104 214.357c20.907-10.069 38.4-31.957 44.587-55.723 5.077-19.499 2.304-45.995-6.741-63.787-5.376-10.667-21.419-28.032-31.061-33.664-46.421-27.221-104.192 0.469-115.84 55.424-1.462 5.793-2.301 12.443-2.301 19.29 0 8.132 1.184 15.987 3.388 23.402l-0.148-0.58c3.474 15.066 10.93 28.042 21.197 38.179l0.008 0.008c17.451 18.56 31.317 24.235 57.301 23.595 16.299-0.427 18.987-0.981 29.611-6.144z" />
<glyph unicode="&#xe914;" glyph-name="hammer-up" d="M129.28 719.787c-38.869-38.912-40.576-41.344-33.707-48.213 6.656-6.656 9.813-4.736 36.693 22.187 14.037 14.080 26.155 25.6 26.837 25.6 0.725 0 1.323-61.056 1.323-135.68v-135.68h20.48v135.68c0 74.624 0.597 135.68 1.323 135.68 0.683 0 12.8-11.52 26.837-25.6 26.88-26.923 30.037-28.843 36.693-22.187 6.912 6.912 5.205 9.344-33.707 48.213-28.587 28.544-38.144 37.12-41.429 37.12s-12.8-8.576-41.344-37.12zM442.411 659.115c-2.005-2.56-14.037-23.339-14.037-24.192 0-0.384 5.76-3.968 12.843-7.979 7.851-4.48 12.501-8.149 12.032-9.472-0.768-1.963-167.765-291.712-189.867-329.387l-9.216-15.701-8.448 4.992c-4.693 2.731-10.752 6.144-13.525 7.595l-4.992 2.56-7.125-12.928c-3.925-7.083-6.485-13.525-5.675-14.293s56.405-33.067 123.52-71.765l141.44-81.664 5.461 9.728c3.029 5.333 6.571 11.307 7.851 13.312 2.261 3.413 1.749 3.968-10.581 11.008-8.917 5.12-12.757 8.235-12.245 10.069 0.555 2.091 196.608 342.699 198.229 344.405 0.256 0.256 6.315-2.987 13.483-7.211l13.013-7.68 2.347 3.797c10.453 17.067 13.099 22.315 11.904 23.424-0.768 0.725-54.4 31.829-119.168 69.163-64.768 37.291-124.032 71.552-131.712 76.032-10.283 6.016-14.379 7.68-15.531 6.187zM562.005 557.099c56.619-32.597 77.995-45.739 77.525-47.616-0.555-2.091-196.693-342.784-198.229-344.363-0.512-0.512-156.288 89.344-158.208 91.264-0.768 0.768 40.491 73.941 91.691 162.645 110.976 192.299 106.411 184.491 107.861 183.723 0.683-0.299 36.395-20.864 79.36-45.653zM624.725 297.515c-5.717-9.856-6.656-12.629-4.864-14.251 1.237-1.109 55.125-32.512 119.808-69.803 88.875-51.243 117.931-67.2 119.040-65.536 6.699 10.24 13.483 24.149 12.288 25.216-2.816 2.475-236.245 136.619-237.739 136.619-0.811 0-4.651-5.504-8.533-12.245z" />
<glyph unicode="&#xe915;" glyph-name="x" d="M169.771 789.291l-6.699-6.869 334.421-334.421-333.696-333.696 14.507-14.507 333.696 333.696 333.696-333.696 14.507 14.507-333.696 333.696 334.464 334.464-14.507 14.507-334.464-334.464-166.827 166.827c-91.776 91.776-167.253 166.827-167.765 166.827s-3.925-3.072-7.637-6.869z" />
<glyph unicode="&#xe916;" glyph-name="heart-empty" d="M313.173 839.339c-14.677-1.877-35.413-6.187-45.227-9.344-74.453-24.107-125.696-85.248-141.525-168.789-7.68-40.491-8.747-85.931-2.731-115.072 11.648-56.363 48.555-125.696 93.952-176.64 20.608-23.125 289.579-305.493 290.987-305.493 1.451 0 274.432 286.635 291.755 306.347 50.005 56.96 84.992 125.824 94.933 186.88 4.309 26.496 2.048 74.283-5.163 108.544-14.933 71.125-57.003 127.147-115.669 154.112-31.957 14.677-55.936 19.712-94.379 19.712-36.181 0.043-56.021-4.693-86.741-20.779-27.307-14.293-63.616-46.549-77.952-69.333-2.033-3.591-4.294-6.695-6.863-9.513l0.037 0.041c-0.469 0-3.541 4.267-6.827 9.472-14.72 23.381-50.901 55.253-79.488 70.101-17.707 9.173-40.661 16.811-57.6 19.115-8.758 0.977-18.912 1.534-29.196 1.534-7.85 0-15.624-0.325-23.31-0.962l1.007 0.067zM379.733 817.621c32-8.917 61.227-27.179 87.893-54.955 16.171-16.853 23.765-27.563 33.451-47.147 3.627-7.296 6.955-13.227 7.467-13.227 0.469 0.043 4.736 7.467 9.429 16.555 11.008 21.333 20.693 33.92 39.808 51.925 25.856 24.363 51.669 39.339 82.219 47.701 12.203 3.371 18.603 4.011 40.107 4.011 27.477 0.043 43.776-2.432 67.541-10.24 55.552-18.176 98.475-63.232 118.357-124.245 13.696-41.984 18.176-101.291 10.411-138.453-11.904-57.088-47.488-122.027-95.317-174.080-35.968-39.125-271.147-285.867-272.469-285.867-1.28 0-227.029 236.672-269.44 282.453-28.327 29.863-52.382 64.169-70.936 101.68l-1.085 2.427c-25.6 52.096-33.664 91.691-29.013 142.592 6.101 66.859 25.003 113.152 61.099 149.547 29.056 29.355 66.048 47.147 110.677 53.333 19.883 2.773 52.181 0.896 69.803-4.011z" />
<glyph unicode="&#xe917;" glyph-name="paddle-empty" d="M475.648 925.781c-68.352-4.224-137.045-25.045-193.664-58.752-43.861-26.112-81.323-65.109-100.395-104.448-14.549-30.080-19.968-55.125-19.84-91.861 0.128-50.603 12.843-89.131 42.496-128.64 12.715-16.981 39.893-44.075 79.061-78.805 85.845-76.117 141.525-139.989 157.696-180.821 10.368-26.325 10.069-21.717 11.136-163.84 0.939-127.104 1.067-130.731 4.437-136.533 6.315-10.923 12.928-12.757 46.080-12.757 34.603-0.043 41.216 1.835 47.445 13.483 3.712 6.912 3.712 7.509 4.651 139.221 0.896 131.328 0.939 132.352 4.821 145.067 11.733 38.784 37.205 73.003 104.235 140.075 23.382 23.386 47.315 46.212 71.784 68.461l1.688 1.513c56.619 50.261 72.448 68.181 87.851 99.712 25.984 53.12 26.624 126.464 1.536 181.461-28.928 63.531-95.616 116.352-183.808 145.579-30.595 10.61-66.105 18.098-102.908 20.983l-1.497 0.094c-31.573 2.005-41.515 2.133-62.805 0.811zM569.173 902.187c84.565-15.019 152.576-47.189 198.827-93.995 40.789-41.259 60.501-91.904 57.472-147.712-1.195-21.931-4.693-41.685-10.325-58.24-11.563-34.048-26.752-52.608-88.96-108.715-100.224-90.496-155.392-152.064-175.829-196.267-3.1-6.639-6.342-14.977-9.1-23.532l-0.457-1.642c-3.797-12.501-3.84-14.251-4.779-145.493-0.939-128.939-1.067-132.907-4.309-135.253-2.517-1.835-9.472-2.432-29.013-2.389-14.123 0-26.837 0.725-28.245 1.621-2.219 1.408-2.688 18.731-3.499 132.693-0.939 128.256-1.067 131.328-4.779 145.536-4.779 18.304-17.493 44.629-30.165 62.293-27.093 37.888-85.717 99.371-142.464 149.376-55.339 48.768-78.379 74.581-93.525 104.917-12.928 25.899-19.115 53.717-19.115 86.187 0 56.192 20.053 101.077 63.787 142.891 49.195 47.019 126.933 79.957 214.4 90.837 21.376 2.645 88.363 0.768 110.080-3.115z" />
<glyph unicode="&#xe918;" glyph-name="paddle-full" d="M475.648 925.781c-68.352-4.224-137.045-25.045-193.664-58.752-43.861-26.112-81.323-65.109-100.395-104.448-14.549-30.080-19.968-55.125-19.84-91.861 0.128-50.603 12.843-89.131 42.496-128.64 12.715-16.981 39.893-44.075 79.061-78.805 85.845-76.117 141.525-139.989 157.696-180.821 10.368-26.325 10.069-21.717 11.136-163.84 0.939-127.104 1.067-130.731 4.437-136.533 6.315-10.923 12.928-12.757 46.080-12.757 34.603-0.043 41.216 1.835 47.445 13.483 3.712 6.912 3.712 7.509 4.651 139.221 0.896 131.328 0.939 132.352 4.821 145.067 11.733 38.784 37.205 73.003 104.235 140.075 23.382 23.386 47.315 46.212 71.784 68.461l1.688 1.513c56.619 50.261 72.448 68.181 87.851 99.712 25.984 53.12 26.624 126.464 1.536 181.461-28.928 63.531-95.616 116.352-183.808 145.579-30.595 10.61-66.105 18.098-102.908 20.983l-1.497 0.094c-31.573 2.005-41.515 2.133-62.805 0.811z" />
<glyph unicode="&#xe919;" glyph-name="heart-full" d="M313.173 839.339c-14.677-1.877-35.413-6.187-45.227-9.344-74.453-24.107-125.696-85.248-141.525-168.789-7.68-40.491-8.747-85.931-2.731-115.072 11.648-56.363 48.555-125.696 93.952-176.64 20.608-23.125 289.579-305.493 290.987-305.493 1.451 0 274.432 286.635 291.755 306.347 50.005 56.96 84.992 125.824 94.933 186.88 4.309 26.496 2.048 74.283-5.163 108.544-14.933 71.125-57.003 127.147-115.669 154.112-31.957 14.677-55.936 19.712-94.379 19.712-36.181 0.043-56.021-4.693-86.741-20.779-27.307-14.293-63.616-46.549-77.952-69.333-2.033-3.591-4.294-6.695-6.863-9.513l0.037 0.041c-0.469 0-3.541 4.267-6.827 9.472-14.72 23.381-50.901 55.253-79.488 70.101-17.707 9.173-40.661 16.811-57.6 19.115-8.758 0.977-18.912 1.534-29.196 1.534-7.85 0-15.624-0.325-23.31-0.962l1.007 0.067z" />
<glyph unicode="&#xe91a;" glyph-name="euro-up" d="M214.613 719.787c-38.869-38.912-40.576-41.344-33.707-48.213 6.656-6.656 9.813-4.736 36.693 22.187 14.037 14.080 26.155 25.6 26.837 25.6 0.725 0 1.323-61.056 1.323-135.68v-135.68h20.48v135.68c0 74.624 0.597 135.68 1.323 135.68 0.683 0 12.8-11.52 26.837-25.6 26.88-26.923 30.037-28.843 36.693-22.187 6.912 6.912 5.205 9.344-33.707 48.213-28.587 28.544-38.144 37.12-41.429 37.12s-12.8-8.576-41.344-37.12zM587.947 661.973c5.123 0.726 0.793-0.135-3.545-0.978l-9.255-1.497c-17.109-3.328-41.728-14.165-54.571-24.021-12.728-10.515-23.802-22.334-33.24-35.413l-0.381-0.555c-13.397-20.523-19.328-41.984-21.888-79.403l-1.237-17.493h-38.869v-22.187h39.253v-63.147h-39.253v-22.187h39.253v-4.693c0.043-2.56 0.811-13.525 1.749-24.32 3.669-41.429 13.184-65.28 35.413-88.917 30.336-32.213 69.717-47.659 115.584-45.355 52.565 2.645 93.355 27.179 118.187 71.040 7.040 12.459 17.451 41.216 17.493 48.299v4.693h-29.867l-4.779-15.104c-9.685-30.72-29.611-55.211-55.381-68.096-19.627-9.813-35.328-13.013-59.051-11.947-31.701 1.408-52.949 10.709-75.264 32.896-12.197 11.737-21.125 26.787-25.339 43.702l-0.133 0.629c-3.34 14.479-5.562 31.333-6.173 48.596l-0.013 0.471v8.107h145.067v22.187h-146.773v63.147h146.773v22.187h-145.536l1.152 15.659c3.243 42.88 13.141 67.243 35.456 87.467 20.288 17.992 47.142 28.98 76.563 28.98 5.092 0 10.107-0.329 15.025-0.967l-0.58 0.062c46.165-5.717 80.469-35.925 94.165-82.987l3.115-10.667h15.787c18.603 0 18.133-0.853 11.307 20.821-8.491 27.008-20.779 47.061-39.552 64.811-26.837 25.301-59.776 37.504-99.925 37.035-0.436 0.003-0.951 0.005-1.466 0.005-6.784 0-13.495-0.312-20.12-0.922l0.851 0.063z" />
<glyph unicode="&#xe91b;" glyph-name="euro-down" d="M245.76 610.987c0-74.624-0.597-135.68-1.323-135.68-0.683 0-12.8 11.52-26.837 25.6-26.88 26.923-30.037 28.843-36.693 22.187-6.912-6.912-5.205-9.344 33.707-48.213 28.587-28.544 38.144-37.12 41.429-37.12s12.8 8.576 41.344 37.12c38.869 38.912 40.576 41.344 33.707 48.213-6.656 6.656-9.813 4.736-36.693-22.187-14.037-14.080-26.155-25.6-26.837-25.6-0.725 0-1.323 61.056-1.323 135.68v135.68h-20.48v-135.68zM587.947 661.973c5.123 0.726 0.793-0.135-3.545-0.978l-9.255-1.497c-17.109-3.328-41.728-14.165-54.571-24.021-12.728-10.515-23.802-22.334-33.24-35.413l-0.381-0.555c-13.397-20.523-19.328-41.984-21.888-79.403l-1.237-17.493h-38.869v-22.187h39.253v-63.147h-39.253v-22.187h39.253v-4.693c0.043-2.56 0.811-13.525 1.749-24.32 3.669-41.429 13.184-65.28 35.413-88.917 30.336-32.213 69.717-47.659 115.584-45.355 52.565 2.645 93.355 27.179 118.187 71.040 7.040 12.459 17.451 41.216 17.493 48.299v4.693h-29.867l-4.779-15.104c-9.685-30.72-29.611-55.211-55.381-68.096-19.627-9.813-35.328-13.013-59.051-11.947-31.701 1.408-52.949 10.709-75.264 32.896-12.197 11.737-21.125 26.787-25.339 43.702l-0.133 0.629c-3.34 14.479-5.562 31.333-6.173 48.596l-0.013 0.471v8.107h145.067v22.187h-146.773v63.147h146.773v22.187h-145.536l1.152 15.659c3.243 42.88 13.141 67.243 35.456 87.467 20.288 17.992 47.142 28.98 76.563 28.98 5.092 0 10.107-0.329 15.025-0.967l-0.58 0.062c46.165-5.717 80.469-35.925 94.165-82.987l3.115-10.667h15.787c18.603 0 18.133-0.853 11.307 20.821-8.491 27.008-20.779 47.061-39.552 64.811-26.837 25.301-59.776 37.504-99.925 37.035-0.436 0.003-0.951 0.005-1.466 0.005-6.784 0-13.495-0.312-20.12-0.922l0.851 0.063z" />
<glyph unicode="&#xe91c;" glyph-name="book-up" d="M86.613 719.787c-38.869-38.912-40.576-41.344-33.707-48.213 6.656-6.656 9.813-4.736 36.693 22.187 14.037 14.080 26.155 25.6 26.837 25.6 0.725 0 1.323-61.056 1.323-135.68v-135.68h20.48v135.68c0 74.624 0.597 135.68 1.323 135.68 0.683 0 12.8-11.52 26.837-25.6 26.88-26.923 30.037-28.843 36.693-22.187 6.912 6.912 5.205 9.344-33.707 48.213-28.587 28.544-38.144 37.12-41.429 37.12s-12.8-8.576-41.344-37.12zM356.693 509.099v-202.24l19.968-2.048c27.801-2.806 53.287-8.65 77.459-17.263l-2.28 0.709c36.395-12.032 82.773-33.707 114.005-53.333l8.448-5.291-256.853-0.085v365.056l19.627 1.024v18.773l-19.2 0.469-19.2 0.512v-404.608h597.333v404.608l-19.2-0.512-19.2-0.469v-18.773l19.627-1.024v-365.056l-256.853 0.085 8.448 5.291c31.232 19.627 77.611 41.301 114.005 53.333 21.892 7.905 47.378 13.749 73.796 16.441l1.383 0.114 19.968 2.048v404.48l-16.64-1.024c-59.989-3.712-141.995-34.261-212.48-79.147l-11.52-7.339-11.52 7.339c-70.528 44.928-151.467 75.093-212.096 79.061l-17.024 1.109v-202.24zM414.037 684.203c46.507-10.197 107.179-35.968 155.136-66.005l17.067-10.667 0.853-362.325-14.080 8.533c-25.122 14.863-55 29.793-85.928 42.71l-4.952 1.834c-28.594 11.966-61.841 21.072-96.492 25.755l-2.068 0.229-8.107 1.067v365.269l9.813-1.152c5.376-0.597 18.347-2.987 28.757-5.248zM819.2 507.819v-182.485l-8.107-1.067c-36.72-4.912-69.967-14.018-101.222-26.961l2.662 0.977c-35.88-14.751-65.758-29.681-94.422-46.46l3.542 1.916-14.080-8.533 0.853 362.325 17.067 10.667c35.269 22.078 75.888 41.464 118.719 56.069l4.161 1.232c21.632 6.912 53.632 13.995 66.133 14.635l4.693 0.213v-182.528z" />
<glyph unicode="&#xe91d;" glyph-name="book-down" d="M117.76 610.987c0-74.624-0.597-135.68-1.323-135.68-0.683 0-12.8 11.52-26.837 25.6-26.88 26.923-30.037 28.843-36.693 22.187-6.912-6.912-5.205-9.344 33.707-48.213 28.587-28.544 38.144-37.12 41.429-37.12s12.8 8.576 41.344 37.12c38.869 38.912 40.576 41.344 33.707 48.213-6.656 6.656-9.813 4.736-36.693-22.187-14.037-14.080-26.155-25.6-26.837-25.6-0.725 0-1.323 61.056-1.323 135.68v135.68h-20.48v-135.68zM360.107 530.389v-216.832l14.933-1.195c46.592-3.755 98.987-19.2 153.173-45.141 22.059-10.539 59.264-30.891 63.061-34.432 0.939-0.896-54.869-1.536-135.253-1.536h-136.875v390.827h20.48v22.187h-40.96v-433.493h640v433.493h-40.96v-22.187h20.48v-390.827h-136.875c-80.085 0-136.192 0.64-135.253 1.536 0.896 0.811 9.216 5.845 18.517 11.179 67.328 38.613 133.803 62.080 192.043 67.755l20.608 2.005v433.451l-18.347-1.109c-61.099-3.755-143.147-33.408-218.325-78.976-5.77-3.747-12.928-7.925-20.268-11.806l-1.62-0.781c-0.64 0-10.453 5.675-21.888 12.587-75.179 45.568-157.227 75.221-218.325 78.976l-18.347 1.109v-216.789zM421.547 718.251c51.712-11.349 116.821-39.296 171.093-73.429l14.933-9.387v-387.456l-6.4 3.84c-75.605 45.141-148.779 73.344-207.019 79.787l-11.008 1.195-0.427 196.053-0.427 196.011 9.813-1.152c5.376-0.64 18.645-3.115 29.44-5.461zM855.040 529.024c0-154.923-0.427-195.584-2.133-196.096-4.092-0.795-10.278-1.725-16.517-2.485l-1.616-0.16c-51.413-6.699-129.92-36.779-187.008-71.68-5.675-3.456-12.032-7.211-14.165-8.363l-3.84-2.048v387.2l13.525 8.576c48 30.507 107.776 57.429 155.605 70.144 20.139 5.333 43.264 9.941 51.456 10.197l4.693 0.171v-195.456z" />
<glyph unicode="&#xe91e;" glyph-name="book" d="M199.68 494.933v-251.733l12.373-0.043c33.707-0.085 85.931-12.288 136.107-31.872 25.344-9.899 79.232-36.352 103.253-50.688l18.773-11.221-318.293-0.043v453.973h23.893v23.893h-47.787v-501.76h740.693v501.76h-47.787v-23.893h23.893v-453.973h-158.208c-92.544 0-157.525 0.64-156.587 1.536 3.413 3.157 36.864 21.675 62.208 34.432 68.48 34.347 134.016 54.571 186.88 57.643l18.773 1.109 0.853 502.613-11.52-0.043c-39.381-0.085-107.904-17.067-161.493-40.021-48.072-21.349-88.525-43.269-127.078-67.9l3.814 2.279c-3.285-2.133-5.163-1.365-21.333 8.747-67.371 42.069-142.421 74.283-205.611 88.277-19.584 4.309-52.437 8.661-65.664 8.661h-10.155v-251.733zM256.341 716.757c47.573-8.747 105.088-29.653 159.701-58.112 24.064-12.587 61.611-34.645 67.371-39.637 2.816-2.432 2.987-15.36 2.987-226.603v-224l-23.168 13.568c-75.819 44.373-152.021 73.259-218.027 82.773l-21.632 3.072v453.632l9.813-1.152c5.376-0.597 15.744-2.219 22.955-3.541zM773.12 494.293v-226.773l-15.787-1.963c-64.939-8.235-145.237-38.229-221.44-82.773l-24.747-14.464-0.469 223.061-0.469 223.019 5.888 5.205c22.357 19.669 112.384 64.128 164.907 81.451 28.885 9.557 72.363 19.413 87.424 19.883l4.693 0.128v-226.773z" />
<glyph unicode="&#xe91f;" glyph-name="calendar-small" d="M298.667 832v-42.667h-87.595c-100.352 0-99.797 0.085-112.811-12.928-14.037-14.037-12.928 17.664-12.928-371.925 0-389.547-1.195-356.096 13.056-370.347 13.952-13.909-22.315-12.8 413.611-12.8 436.309 0 399.659-1.152 413.739 12.928 14.037 14.037 12.928-17.536 12.928 371.072s1.109 357.035-12.928 371.072c-13.013 13.013-12.459 12.928-112.811 12.928h-87.595v85.333h-85.333v-85.333h-256v85.333h-85.333v-42.667zM896 607.573v-139.093h-768v278.187h768v-139.093zM896 245.76v-181.76h-768v363.52h768v-181.76z" />
<glyph unicode="&#xe920;" glyph-name="star-empty" d="M400.663 258.581l111.337 84.578 111.339-84.578-44.181 140.083 102.498 67.836h-123.708l-45.948 140.965-45.948-140.965h-123.709l102.499-67.836-44.18-140.083zM326.438 149.333l69.807 228.186-182.911 130.389h227.093l71.573 238.758 71.573-238.758h227.093l-182.912-130.389 69.807-228.186-185.562 140.962-185.562-140.962z" />
<glyph unicode="&#xe921;" glyph-name="star-full" d="M326.438 149.333l69.807 228.186-182.911 130.389h227.093l71.573 238.758 71.573-238.758h227.093l-182.912-130.389 69.807-228.186-185.562 140.962-185.562-140.962z" />
<glyph unicode="&#xe922;" glyph-name="external-link" horiz-adv-x="1081" d="M583.68 789.732v-42.325h195.47l-333.255-333.255 60.302-60.359 333.312 333.255v-195.413h84.651v340.48h-340.48v-42.382zM185.116 701.611c-10.572-3.737-18.979-11.348-23.672-21.086l-0.107-0.247-4.665-9.5 0.512-288.37 0.455-288.313 5.461-8.818c3.71-5.791 8.488-10.57 14.095-14.169l0.184-0.111 8.818-5.461h580.608l8.818 5.461c5.779 3.726 10.554 8.5 14.168 14.095l0.111 0.184 5.461 8.818 0.455 134.827 0.512 134.77h-84.764v-214.357h-470.187v470.187h214.414v84.651l-131.982-0.057c-105.529-0.057-133.291-0.569-138.695-2.503z" />
<glyph unicode="&#xe923;" glyph-name="letter" d="M68.267 751.787c0-4.565-0.555-5.12-5.12-5.12h-5.12v-564.907h907.947v564.907h-5.12c-4.565 0-5.12 0.555-5.12 5.12v5.12h-887.467v-5.12zM914.731 734.123c-1.408-1.28-92.629-58.581-202.709-127.317l-200.235-125.013-9.685 5.931-76.288 46.549c-147.712 90.112-320 198.443-320 201.259 0 0.512 182.571 0.896 405.717 0.896 341.376 0 405.291-0.384 403.2-2.304zM116.949 702.123c76.587-49.579 194.389-123.008 327.296-203.947l67.883-41.344 214.357 133.973c-66.296-36.439 4.383 8.11 75.239 52.402l141.422 82.425c2.005 0.768 2.347-39.424 2.347-261.248v-262.144h-866.987v261.973c0 144.085 0.299 261.973 0.683 261.973s17.365-10.837 37.76-24.064z" />
<glyph unicode="&#xe924;" glyph-name="grid" d="M6.713 927.744c-2.731-2.788-5.006-6.599-5.063-8.59v-220.388c0.057-1.991 2.276-5.803 5.063-8.533l4.949-5.006h239.502l4.949 5.006 5.006 4.949v227.1l-4.096 4.779-4.153 4.779-241.095 0.91-5.063-5.006zM375.979 929.337c-3.365-1.823-5.776-5.039-6.474-8.854l-0.012-0.077c-0.569-3.072-0.796-55.353-0.512-116.11l0.512-110.421 3.868-3.925 3.925-3.868 240.412-0.91 5.575 5.006 5.632 5.006v227.556l-5.575 4.949-5.575 5.006h-118.158c-114.119 0-118.329-0.114-123.62-3.356zM742.002 927.687l-5.575-4.949-0.455-111.161c-0.512-121.97-0.626-120.32 9.557-124.53 3.243-1.365 39.14-1.764 123.563-1.422l118.955 0.455 3.925 3.868 3.868 3.925 0.455 112.128c0.341 82.261-0.057 113.436-1.536 116.964-4.096 9.956-0.74 9.728-129.365 9.728h-117.817l-5.575-5.006zM201.614 882.233c9.557-4.949 10.012-8.306 10.012-73.671 0-53.077-0.341-59.961-3.015-65.308-5.177-10.354-4.665-10.297-79.303-9.842l-67.812 0.455-9.444 9.444v65.536c0 63.033 0.114 65.593 3.413 69.234 1.912 2.108 4.171 3.859 6.694 5.171l0.132 0.063c1.877 0.74 32.825 1.422 68.779 1.479 56.149 0.114 66.105-0.284 70.542-2.56zM573.554 878.478l5.006-5.575v-128.284l-11.605-11.605h-67.129c-63.545 0-67.47 0.171-72.647 3.356-3.57 2.159-6.179 5.603-7.202 9.676l-0.023 0.109c-2.446 8.704-2.446 116.907 0 125.611 1.063 4.191 3.665 7.647 7.156 9.802l0.069 0.040c5.234 3.186 8.42 3.356 73.444 2.901l67.982-0.455 4.949-5.575zM937.017 882.347c2.864-1.545 5.219-3.699 6.953-6.301l0.044-0.070c1.422-2.674 1.991-21.675 1.991-67.015s-0.569-64.341-1.991-67.015c-4.665-8.647-7.054-8.932-77.938-8.932-71.794 0-73.102 0.171-77.426 9.728-1.252 2.731-1.877 25.372-1.877 66.901 0 61.611 0.057 62.976 3.641 67.47 1.96 2.525 4.386 4.588 7.162 6.085l0.12 0.059c1.934 0.796 32.996 1.479 68.949 1.536 55.125 0.114 66.162-0.284 70.372-2.446zM6.77 578.162l-5.291-4.722v-113.209c0-123.904-0.341-119.353 9.899-123.278 2.731-1.024 48.868-1.479 122.937-1.195l118.556 0.455 4.153 4.779 4.096 4.779v227.1l-5.006 4.949-4.949 5.006h-239.161l-5.234-4.665zM374.272 578.731l-4.779-4.153-0.512-110.649c-0.284-60.871-0.057-113.209 0.512-116.281 0.709-3.892 3.121-7.108 6.419-8.899l0.067-0.033c5.291-3.243 9.5-3.356 123.62-3.356h118.158l5.575 5.006 5.575 4.949 0.455 111.161c0.512 121.344 0.626 119.922-9.159 124.416-3.072 1.365-37.774 1.934-122.709 1.934h-118.443l-4.779-4.096zM743.765 580.21c-3.21-1.995-5.55-5.133-6.465-8.832l-0.021-0.099c-1.308-4.38-1.707-40.676-1.365-116.167l0.512-109.796 5.575-4.949 5.575-5.006h117.817c128.626 0 125.269-0.228 129.365 9.728 1.479 3.527 1.877 34.702 1.536 116.964l-0.455 112.128-3.868 3.925-3.925 3.868-119.808 0.398c-103.253 0.284-120.491 0-124.473-2.162zM201.387 532.878c3.075-2.019 5.53-4.748 7.171-7.961l0.054-0.117c2.674-5.348 3.015-12.231 3.015-65.308 0-65.536-0.455-68.722-10.126-73.728-4.608-2.389-13.596-2.674-72.647-2.219l-67.356 0.455-9.444 9.444v131.641l5.575 4.949 5.575 5.006h66.958c50.062-0.057 68.039-0.569 71.225-2.162zM570.027 532.196c2.802-1.684 5.058-4.014 6.609-6.791l0.047-0.092c1.252-2.731 1.877-25.429 1.877-67.129v-63.033l-5.006-5.575-4.949-5.575-67.982-0.455c-65.024-0.455-68.21-0.284-73.444 2.901-3.56 2.195-6.162 5.65-7.201 9.731l-0.024 0.111c-2.446 8.704-2.446 116.907 0 125.611 1.046 4.182 3.655 7.625 7.155 9.745l0.070 0.040c5.177 3.186 9.102 3.356 71.737 3.356 58.823 0 66.844-0.341 71.111-2.844zM937.017 532.48c2.864-1.545 5.219-3.699 6.953-6.301l0.044-0.070c1.422-2.674 1.991-21.675 1.991-67.015s-0.569-64.341-1.991-67.015c-4.779-8.875-6.884-9.102-79.758-8.533l-67.527 0.455-4.949 5.575-5.006 5.575 0.057 63.545c0.057 67.925 0.228 69.291 8.647 73.956 6.428 3.584 134.599 3.413 141.54-0.171zM19.627 233.301c-7.623-0.74-13.483-3.413-15.929-7.339-1.707-2.788-2.162-27.648-2.219-116.167 0-123.164-0.341-118.841 9.842-122.652 2.56-1.024 50.688-1.65 120.263-1.65 124.359 0 123.221-0.057 127.772 8.42 1.138 2.162 1.764 42.041 1.764 116.167v112.924l-5.006 4.949c-3.47 3.527-6.656 5.006-10.638 5.006l-113.209 0.455c-59.164 0.228-109.796 0.171-112.64-0.114zM384.171 232.789c-4.612-0.29-8.68-2.401-11.533-5.615l-0.015-0.017-3.982-4.608v-111.787c0-122.027-0.228-119.239 9.728-123.335 3.527-1.479 36.181-1.877 122.937-1.536l118.158 0.455 9.444 9.444 0.512 109.625c0.341 75.776-0.057 111.616-1.365 115.996-3.47 12.004 1.308 11.548-124.132 12.004-11.916 0.135-25.99 0.212-40.082 0.212-28.015 0-55.958-0.304-83.828-0.909l4.159 0.071zM860.501 233.358c-125.952-0.455-119.751 0.114-123.278-12.117-1.252-4.153-1.65-42.268-1.308-115.826l0.512-109.625 9.444-9.444 116.452-0.512c80.384-0.341 118.443 0.057 122.823 1.365 12.117 3.527 11.662-1.536 11.15 124.53l-0.455 112.583-3.698 3.755c-3.048 2.486-6.834 4.179-10.984 4.71l-0.109 0.011c-4.096 0.569-58.311 0.853-120.548 0.569zM205.198 180.167l5.575-4.949 0.512-62.35c0.398-52.338 0.057-63.317-2.105-68.437-4.551-10.866-6.428-11.15-78.165-11.15-57.116 0-64.228 0.284-69.575 3.015-10.297 5.177-10.297 5.063-9.842 75.207l0.455 63.716 5.575 4.949 5.575 5.006h136.42l5.575-5.006zM569.799 182.727c8.476-4.38 8.761-6.599 8.761-74.411v-63.033l-5.006-5.575-4.949-5.575-67.129-0.455c-61.326-0.398-67.641-0.171-73.102 2.56-9.614 4.836-10.012 8.021-10.126 73.444-0.114 62.805 0.341 66.901 8.647 72.704 3.47 2.446 11.776 2.788 71.054 2.788 54.784 0 67.982-0.455 71.851-2.446zM935.879 183.524c10.012-3.755 10.126-4.551 10.126-74.012 0.057-71.339 0.114-70.997-12.231-74.638-4.039-1.138-28.786-1.593-71.623-1.252l-65.422 0.512-4.949 5.575-5.006 5.575 0.057 63.545c0.057 67.925 0.228 69.291 8.647 73.956 3.186 1.764 18.603 2.276 70.144 2.332 37.945 0.057 67.812-0.626 70.258-1.593z" />
<glyph unicode="&#xe925;" glyph-name="articles" d="M30.673 905.821l-5.26-4.701 0.047-184.273c0-177.524 0.14-184.413 3.212-188.509 1.865-2.428 4.339-4.302 7.195-5.407l0.113-0.039c2.281-0.652 114.548-1.257 249.53-1.35 263.401-0.186 254.185-0.465 258.839 8.192 2.56 4.841 2.7 367.337 0.14 372.131-4.934 9.169 11.311 8.657-258.979 8.657h-249.623l-5.213-4.701zM603.881 907.916c-9.728-5.306-11.264-31.046-2.374-39.889l4.422-4.468h359.983l4.701 4.748c4.329 4.329 4.748 5.865 4.748 17.222 0 13.871-2.42 20.154-8.797 23.087-2.979 1.35-54.924 1.862-181.155 1.815-151.226-0.047-177.664-0.419-181.527-2.513zM606.72 811.613c-8.006-3.305-10.24-8.239-10.24-22.435 0-12.381 0.372-13.777 4.748-18.153l4.701-4.748h359.983l4.701 4.748c4.375 4.375 4.748 5.725 4.748 18.292s-0.372 13.964-4.748 18.339l-4.701 4.701-177.897 0.326c-97.839 0.186-179.433-0.279-181.295-1.071zM608.209 714.799c-2.923-1.001-5.408-2.631-7.392-4.738l-0.009-0.009c-4.701-5.027-6.609-21.364-3.537-30.58 3.956-12.009-7.727-11.311 188.463-11.311 125.859 0 177.85 0.559 180.829 1.908 6.377 2.886 8.797 9.216 8.797 23.087 0 11.357-0.419 12.893-4.748 17.222l-4.701 4.701-177.059 0.233c-97.327 0.093-178.641-0.14-180.643-0.512zM35.98 373.108c-2.969-1.144-5.442-3.018-7.279-5.407l-0.029-0.039c-3.072-4.096-3.212-10.985-3.212-188.509l-0.047-184.273 5.26-4.701 5.213-4.701h249.623c270.289 0 254.045-0.512 258.979 8.657 2.56 4.794 2.42 367.29-0.14 372.131-4.655 8.657 4.561 8.378-258.839 8.192-134.982-0.093-247.249-0.698-249.53-1.35zM608.209 373.434c-2.937-0.961-5.431-2.599-7.389-4.735l-0.011-0.013c-4.701-4.98-6.609-21.318-3.537-30.534 3.956-12.009-7.727-11.311 188.463-11.311 125.859 0 177.85 0.512 180.829 1.862 6.377 2.932 8.797 9.263 8.797 23.087 0 11.404-0.419 12.94-4.748 17.222l-4.701 4.748-177.059 0.233c-97.327 0.093-178.641-0.14-180.643-0.559zM607.884 275.223c-3.078-0.911-5.721-2.486-7.871-4.566l0.005 0.005c-3.91-4.329-5.492-21.504-2.746-29.789 3.956-12.009-7.727-11.311 188.649-11.311 194.607 0 184.553-0.559 188.416 10.426 4.236 12.195 0.838 29.929-6.516 33.839-4.096 2.188-351.697 3.537-359.936 1.396zM603.555 176.407c-10.519-6.097-10.287-36.631 0.326-42.31 4.887-2.56 359.191-2.56 364.079 0 2.569 1.952 4.565 4.532 5.775 7.514l0.043 0.119c4.934 11.776 1.722 30.72-5.818 34.769-4.841 2.607-359.936 2.513-364.404-0.093z" />
<glyph unicode="&#xe926;" glyph-name="arrow-up" d="M455.111-7.111v-56.889h113.778v56.889h-113.778zM512 960l-328.448-568.889h656.896l-328.448 568.889zM568.889-7.111v455.111h-113.778v-455.111h113.778z" />
<glyph unicode="&#xea2f;" glyph-name="phone-empty" d="M69.419 933.675c-19.797-8.192-31.915-19.584-41.045-38.528-5.163-10.709-5.333-11.989-5.931-37.547-1.28-55.637 7.296-131.925 21.931-195.627 47.957-208.683 168.064-393.301 340.48-523.221 85.499-64.408 185.573-115.146 293.872-146.526l6.501-1.613c76.885-21.376 167.68-33.749 236.373-32.171 25.643 0.597 26.795 0.768 38.016 6.059 15.189 7.211 28.672 20.693 35.883 35.883l5.461 11.563v220.16l-5.291 11.136c-9.131 19.285-27.947 35.285-47.189 40.064-4.907 1.195-21.248 2.688-36.267 3.243-56.704 2.219-96.128 8.747-154.197 25.643-30.421 8.832-48.171 7.851-68.523-3.669-4.352-2.475-31.744-28.288-63.232-59.605l-55.509-55.253-19.584 11.221c-115.413 66.133-215.893 166.357-281.387 280.661l-12.117 21.163 55.253 55.552c32.427 32.597 57.173 58.88 59.904 63.616 11.904 20.736 12.331 38.357 1.835 75.264-14.891 52.352-20.565 87.125-23.125 141.056-0.896 19.285-2.56 38.485-3.669 42.709-5.163 19.328-20.779 37.376-40.363 46.635l-11.392 5.419-216.747 0.811-9.941-4.096zM283.264 895.019c4.949-1.257 9.292-3.268 13.148-5.933l-0.135 0.088c9.728-7.424 11.435-13.739 12.843-47.957 2.176-52.821 10.027-101.717 23.893-148.565 7.509-25.301 8.448-34.816 4.309-42.624-1.408-2.688-31.445-33.707-66.688-68.907-35.285-35.2-64.128-65.024-64.128-66.304 0-5.291 32.939-63.317 53.419-94.123 30.592-46.037 58.624-79.829 102.656-123.776 46.891-46.805 89.472-80.853 142.208-113.749 26.624-16.597 70.4-40.661 73.941-40.661 1.323 0 31.189 28.885 66.389 64.171 35.669 35.755 66.432 65.237 69.504 66.56 8.149 3.541 16.213 2.944 34.432-2.645 50.432-15.403 94.549-22.869 152.917-25.813 40.363-2.005 45.739-3.712 53.376-16.683l4.651-7.936 0.512-92.843c0.555-105.045 0.341-107.691-9.856-117.888-9.088-9.088-15.104-9.984-56.491-8.405-198.955 7.68-386.091 82.645-536.619 214.955-28.982 26.492-55.824 53.469-81.347 81.662l-0.914 1.026c-123.984 142.111-202.231 326.959-210.21 529.859l-0.051 1.639c-0.811 20.992-0.683 37.845 0.256 42.411 2.946 10.839 11.26 19.223 21.837 22.218l0.222 0.054c10.24 2.261 186.069 2.432 195.925 0.171z" />
<glyph unicode="&#xea30;" glyph-name="phone-full" d="M69.419 933.675c-19.797-8.192-31.915-19.584-41.045-38.528-5.163-10.709-5.333-11.989-5.931-37.547-1.28-55.637 7.296-131.925 21.931-195.627 47.957-208.683 168.064-393.301 340.48-523.221 85.499-64.408 185.573-115.146 293.872-146.526l6.501-1.613c76.885-21.376 167.68-33.749 236.373-32.171 25.643 0.597 26.795 0.768 38.016 6.059 15.189 7.211 28.672 20.693 35.883 35.883l5.461 11.563v220.16l-5.291 11.136c-9.131 19.285-27.947 35.285-47.189 40.064-4.907 1.195-21.248 2.688-36.267 3.243-56.704 2.219-96.128 8.747-154.197 25.643-30.421 8.832-48.171 7.851-68.523-3.669-4.352-2.475-31.744-28.288-63.232-59.605l-55.509-55.253-19.584 11.221c-115.413 66.133-215.893 166.357-281.387 280.661l-12.117 21.163 55.253 55.552c32.427 32.597 57.173 58.88 59.904 63.616 11.904 20.736 12.331 38.357 1.835 75.264-14.891 52.352-20.565 87.125-23.125 141.056-0.896 19.285-2.56 38.485-3.669 42.709-5.163 19.328-20.779 37.376-40.363 46.635l-11.392 5.419-216.747 0.811-9.941-4.096z" />
<glyph unicode="&#xea33;" glyph-name="laptop-empty" d="M905.452 290.462l-19.692 0.020v-0.020h19.692zM905.846 684.308v0zM196.923 684.308v19.692h-19.692v-19.692h19.692zM827.077 684.308h19.692v19.692h-19.692v-19.692zM827.077 290.462v-19.692h19.692v19.692h-19.692zM196.923 290.462h-19.692v-19.692h19.692v19.692zM827.077 192c54.327 0 98.068 44.39 98.068 98.462h-39.385c0-32.575-26.364-59.077-58.683-59.077v-39.385zM925.145 290.442l0.394 393.846-39.385 0.039-0.394-393.846 39.385-0.039zM925.538 684.308c0 54.199-44.264 98.462-98.462 98.462v-39.385c32.449 0 59.077-26.63 59.077-59.077h39.385zM827.077 782.769h-630.154v-39.385h630.154v39.385zM196.923 782.769c-54.199 0-98.462-44.263-98.462-98.462h39.385c0 32.447 26.63 59.077 59.077 59.077v39.385zM98.462 684.308v-393.846h39.385v393.846h-39.385zM98.462 290.462c0-54.197 44.263-98.462 98.462-98.462v39.385c-32.447 0-59.077 26.628-59.077 59.077h-39.385zM196.923 231.385h-137.846v-39.385h137.846v39.385zM19.692 192v-39.385h39.385v39.385h-39.385zM59.077 113.231h905.846v39.385h-905.846v-39.385zM1004.308 152.615v39.385h-39.385v-39.385h39.385zM964.923 231.385h-137.846v-39.385h137.846v39.385zM196.923 664.615h630.154v39.385h-630.154v-39.385zM807.385 684.308v-393.846h39.385v393.846h-39.385zM827.077 310.154h-630.154v-39.385h630.154v39.385zM216.615 290.462v393.846h-39.385v-393.846h39.385zM1004.308 192c0 21.752-17.632 39.385-39.385 39.385v-39.385h39.385zM964.923 113.231c21.752 0 39.385 17.632 39.385 39.385h-39.385v-39.385zM19.692 152.615c0-21.752 17.633-39.385 39.385-39.385v39.385h-39.385zM59.077 231.385c-21.752 0-39.385-17.632-39.385-39.385h39.385v39.385zM196.923 192h630.154v39.385h-630.154v-39.385z" />
<glyph unicode="&#xea35;" glyph-name="hammer-empty" d="M106.667 442.692l-21.333-36.949 369.506-213.333 21.333 36.949-36.954 21.333 277.333 480.358 36.954-21.333 21.333 36.95-369.506 213.333-21.333-36.95 36.95-21.334-277.333-480.357-36.951 21.333zM679.603 752.383l-277.333-480.357-221.702 128 277.335 480.357 221.7-128zM646.071 437.892l21.333 36.954 332.553-192-21.333-36.954-332.553 192zM896-21.333h-896v-42.667h896v42.667z" />
<glyph unicode="&#xea36;" glyph-name="hammer-full" d="M106.667 442.692l-21.333-36.949 369.506-213.333 21.333 36.949-36.954 21.333 277.333 480.357 36.954-21.333 21.333 36.951-369.506 213.333-21.333-36.95 37.501-21.651-277.333-480.355-37.501 21.649zM646.071 437.892l21.333 36.954 332.553-192-21.333-36.954-332.553 192zM0-21.333h896v-42.667h-896v42.667z" />
<glyph unicode="&#xea37;" glyph-name="no-reserve" d="M229.248 767.573c77.939 69.146 178.561 107.258 282.752 107.093 235.648 0 426.667-191.019 426.667-426.666 0.141-87.206-26.573-172.343-76.501-243.84l-115.499 243.84h106.667c0 67.866-20.228 134.194-58.108 190.508-37.875 56.314-91.682 100.058-154.543 125.644-62.857 25.586-131.917 31.853-198.357 17.999-66.438-13.853-127.239-47.198-174.635-95.774l-38.4 81.152-0.043 0.043zM794.752 128.427c-77.939-69.146-178.56-107.26-282.752-107.093-235.648 0-426.667 191.019-426.667 426.667 0 90.666 28.288 174.72 76.501 243.84l115.499-243.84h-106.667c-0.001-67.87 20.229-134.195 58.107-190.511 37.878-56.311 91.683-100.058 154.543-125.645 62.858-25.583 131.918-31.851 198.359-17.997 66.436 13.854 127.241 47.198 174.635 95.774l38.4-81.152 0.043-0.043zM572.331 327.339l-120.661 120.661-120.704-120.661-60.331 60.331 181.035 180.992 120.661-120.661 120.704 120.661 60.331-60.33-181.035-180.992z" />
</font>
</defs>
</svg>
